Grey's Anatomy Season 14 Episode 14 | Health, Mind and Body | WATCH NOW!

Wonder Wheel - La ruota delle meraviglie (2017) Kate Winslet.720p...

  • Category Movies
  • Type HD
  • Language English
  • Total size 1.9 GB
  • Uploaded By robbyrs
  • Downloads 790
  • Last checked 21 minutes ago
  • Date uploaded 3 days ago
  • Seeders 188
  • Leechers 82

Wonder Wheel

Drama

The story of four characters whose lives intertwine amid the hustle and bustle of the Coney Island amusement park in the 1950s: Ginny, an emotionally volatile former actress now working as a waitress in a clam house; Humpty, Ginny’s rough-hewn carousel operator husband; Mickey, a handsome young lifeguard who dreams of becoming a playwright; and Carolina, Humpty’s long-estranged daughter, who is now hiding out from gangsters at her father’s apartment.

Infohash : 556591305A915617D54EEF0E935635914A990041

Wonder Wheel - La ruota delle meraviglie (2017) Kate Winslet.720p.H264.italian.english.Ac3-5.1.sub.ita.NUita.MIRCrew


NO FOUND ONLY ORIGINAL RELEASE



My release is always in double track audio italian and Original audio
for select it use VLC or dvd player home
not use wmp

PRESENTI I SOTTOTITOLI ITALIANI PER NON UDENTI

La ruota delle meraviglie - Wonder Wheel (2017)

Quality MIRCrew on HD 720p da 1,9 gb







Titolo originale Wonder Wheel
Lingua originale inglese
Paese di produzione Stati Uniti d'America
Anno 2017
Durata 101 min
Rapporto 2,00:1
Genere drammatico
Regia Woody Allen
Soggetto Woody Allen
Sceneggiatura Woody Allen
Produttore Erika Aronson, Letty Aronson, Edward Walson
Produttore esecutivo Ronald L. Chez, Mark Attanasio, Adam B. Stern
Casa di produzione Amazon Studios, Gravier Productions, Perdido Production
Distribuzione (Italia) Lucky Red
Fotografia Vittorio Storaro
Montaggio Alisa Lepselter
Effetti speciali Mark Vicidomini
Scenografia Santo Loquasto
Costumi Suzy Benzinger



Kate Winslet: Ginny Rannell
Justin Timberlake: Mickey Rubin
Juno Temple: Carolina
Jim Belushi: Humpty Rannell
Jack Gore: Richie
Tony Sirico: Angelo
Steve Schirripa: Nick
Max Casella: Ryan
David Krumholtz: Jake
Bobby Slayton: Louis
John Mainieri: John




Anni cinquanta, Coney Island. Ginny è una ex attrice sulla quarantina che lavora come cameriera presso un modesto ristorante di pesce, situato in un grande parco giochi vicino alla costa dominato dalla ruota panoramica detta appunto "wonder wheel". Ha un rapporto difficile sia con il marito Humpty, che diventa violento quando beve, sia con il figlio avuto dal primo matrimonio, dedito alla piromania.



On Coney Island in the 1950s, a lifeguard tells the story of a middle-aged carousel operator, his beleaguered wife, and the visitor who turns their lives upside-down.









[spoiler]
General
Unique ID : 54922520522014049935745774457741620927 (0x2951B15418A3D0ABC1FC7758DD1BB6BF)
Complete name : La ruota delle meraviglie - Wonder Wheel (2017).720p.H264.ita.eng.sub.ita.NUita-MIRCrew\La ruota delle meraviglie - Wonder Wheel (2017).720p.H264.ita.eng.sub.ita.NUita-MIRCrew.mkv
Format : Matroska
Format version : Version 2
File size : 1.88 GiB
Duration : 1h 41mn
Overall bit rate : 2 641 Kbps
Movie name : MIRCrew
Encoded date : UTC 2018-04-12 18:39:42
Writing application : Lavf54.63.100
Writing library : Lavf54.63.100
COPYRIGHT : robbyrs - Il Corsaronero

Video
ID : 1
Format : AVC
Format/Info : Advanced Video Codec
Format profile : [email protected]
Format settings, CABAC : Yes
Format settings, ReFrames : 2 frames
Codec ID : V_MPEG4/ISO/AVC
Duration : 1h 41mn
Bit rate : 1 692 Kbps
Nominal bit rate : 1 800 Kbps
Width : 1 280 pixels
Height : 640 pixels
Display aspect ratio : 2.000
Frame rate mode : Variable
Frame rate : 24.000 fps
Color space : YUV
Chroma subsampling : 4:2:0
Bit depth : 8 bits
Scan type : Progressive
Bits/(Pixel*Frame) : 0.086
Stream size : 1.20 GiB (64%)
Writing library : x264 core 130 r2273
Encoding settings : cabac=1 / ref=2 / deblock=1:0:0 / analyse=0x1:0x131 / me=hex / subme=7 / psy=1 / psy_rd=1.00:0.00 / mixed_ref=0 / me_range=16 / chroma_me=1 / trellis=1 / 8x8dct=0 / cqm=0 / deadzone=21,11 / fast_pskip=1 / chroma_qp_offset=-2 / threads=3 / lookahead_threads=1 / sliced_threads=0 / nr=0 / decimate=1 / interlaced=0 / bluray_compat=0 / constrained_intra=0 / bframes=3 / b_pyramid=0 / b_adapt=1 / b_bias=0 / direct=3 / weightb=1 / open_gop=0 / weightp=2 / keyint=240 / keyint_min=24 / scenecut=40 / intra_refresh=0 / rc_lookahead=40 / rc=abr / mbtree=1 / bitrate=1800 / ratetol=1.0 / qcomp=0.60 / qpmin=10 / qpmax=69 / qpstep=4 / vbv_maxrate=24000 / vbv_bufsize=24000 / nal_hrd=none / ip_ratio=1.40 / aq=1:1.00
Language : Italian
Default : Yes
Forced : No
DURATION : 01:41:38.542000000
NUMBER_OF_FRAMES : 146365
NUMBER_OF_BYTES : 8564936968
_STATISTICS_WRITING_APP : mkvmerge v9.7.1 ('Pandemonium') 64bit
_STATISTICS_WRITING_DATE_UTC : 2018-04-06 15:18:24
_STATISTICS_TAGS : BPS DURATION NUMBER_OF_FRAMES NUMBER_OF_BYTES

Audio #1
ID : 2
Format : AC-3
Format/Info : Audio Coding 3
Mode extension : CM (complete main)
Codec ID : A_AC3
Duration : 1h 41mn
Bit rate mode : Constant
Bit rate : 448 Kbps
Channel(s) : 6 channels
Channel positions : Front: L C R, Side: L R, LFE
Sampling rate : 48.0 KHz
Bit depth : 16 bits
Compression mode : Lossy
Delay relative to video : 1mn 5s
Stream size : 326 MiB (17%)
Title : Ita. AC3 640 Kbps
Language : Italian
Default : No
Forced : No
DURATION : 01:41:39.552000000
NUMBER_OF_FRAMES : 190611
NUMBER_OF_BYTES : 487964160
_STATISTICS_WRITING_APP : mkvmerge v9.7.1 ('Pandemonium') 64bit
_STATISTICS_WRITING_DATE_UTC : 2018-04-06 15:18:24
_STATISTICS_TAGS : BPS DURATION NUMBER_OF_FRAMES NUMBER_OF_BYTES

Audio #2
ID : 3
Format : AC-3
Format/Info : Audio Coding 3
Mode extension : CM (complete main)
Codec ID : A_AC3
Duration : 1h 41mn
Bit rate mode : Constant
Bit rate : 448 Kbps
Channel(s) : 6 channels
Channel positions : Front: L C R, Side: L R, LFE
Sampling rate : 48.0 KHz
Bit depth : 16 bits
Compression mode : Lossy
Delay relative to video : 1mn 5s
Stream size : 326 MiB (17%)
Title : Eng. DTS 1510 Kbps
Language : English
Default : No
Forced : No
DURATION : 01:41:39.574000000
NUMBER_OF_FRAMES : 571835
NUMBER_OF_BYTES : 1150532136
_STATISTICS_WRITING_APP : mkvmerge v9.7.1 ('Pandemonium') 64bit
_STATISTICS_WRITING_DATE_UTC : 2018-04-06 15:18:24
_STATISTICS_TAGS : BPS DURATION NUMBER_OF_FRAMES NUMBER_OF_BYTES

Menu
00:00:00.000 : :(01)00:00:00:000
00:06:31.125 : :(02)00:06:31:125
00:15:48.666 : :(03)00:15:48:666
00:24:09.041 : :(04)00:24:09:041
00:34:17.000 : :(05)00:34:17:000
00:42:03.041 : :(06)00:42:03:041
00:50:14.291 : :(07)00:50:14:291
00:58:25.458 : :(08)00:58:25:458
01:09:58.333 : :(09)01:09:58:333
01:15:57.958 : :(10)01:15:57:958
01:24:28.333 : :(11)01:24:28:333
01:35:27.458 : :(12)01:35:27:458


[/spoiler]



Files:

La ruota delle meraviglie - Wonder Wheel(2017).H264.ita.eng.sub.ita.NUita-MIRCrew
  • La ruota delle meraviglie - Wonder Wheel(2017).H264.ita.eng.sub.ita.NUita-MIRCrew.ita.srt (113.0 KB)
  • La ruota delle meraviglie - Wonder Wheel(2017).H264.ita.eng.sub.ita.NUita-MIRCrew.mkv (1.9 GB)
  • La ruota delle meraviglie - Wonder Wheel(2017).H264.ita.eng.sub.ita.NUita-MIRCrew.NUita.srt (121.8 KB)
  • MIRCrew-ilCorSaRoNeRo.txt (0.1 KB)

There are currently no comments. Feel free to leave one :)

Code:

  • udp://tracker.coppersurfer.tk:6969/announce
  • udp://tracker.opentrackr.org:1337/announce
  • udp://tracker.pirateparty.gr:6969/announce
  • udp://tracker.zer0day.to:1337/announce
  • udp://p4p.arenabg.com:1337/announce
  • udp://p4p.arenabg.ch:1337/announce
  • udp://eddie4.nl:6969/announce
  • udp://tracker.leechers-paradise.org:6969/announce
  • udp://9.rarbg.me:2740/announce
  • udp://9.rarbg.to:2740/announce
  • udp://9.rarbg.com:2710/announce
  • udp://tracker.internetwarriors.net:1337/announce
  • udp://tracker.cyberia.is:6969/announce